Abel Pintos – Sueños dorados ( dvd ) Descargar Gratis

Abel Pintos – Sueños dorados ( dvd ) Descargar Gratis musica mp3 gratis, discografia completa, descarga directa, alta calidad, descargar todas las canciones, 1 link, torrent, rapidshare, mediafire, MEGA

Sinopsis “SUEÑO DORADO” es un concierto intimista de Abel Pintos realizado en la Ciudad Sagrada de los Indios Quilmes, Provincia de Tucumán. El proyecto plasma el crecimiento de un gran artista en un espacio natural como la Ciudad Sagrada de los Indios Quilmes, un lugar con mucha mística e historia para contar. Lista de Temas:

Spoiler


1 Quien pudiera 2 El beso/ Quisiera 3 La Llave 4 Sueño Dorado 5 Cactus 6 No me Olvides 7 Todo esta en Vos 8 Ofrezco 9 Sin Principio ni Final 10 Hasta aquí 11 Tiempo 12 El Antigal

Capturas: MediaInfo

Spoiler


Video ID : 1 Format : AVC Format/Info : Advanced Video Codec Format profile : Main@L3.0 Format settings, CABAC : Yes Format settings, ReFrames : 4 frames Codec ID : avc1 Codec ID/Info : Advanced Video Coding Duration : 51mn 19s Duration_LastFrame : 8ms Bit rate mode : Variable Bit rate : 1 631 Kbps Width : 720 pixels Height : 480 pixels Display aspect ratio : 16:9 Original display aspect ratio : 16:9 Frame rate mode : Constant Frame rate : 29.970 fps Standard : NTSC Color space : YUV Chroma subsampling : 4:2:0 Bit depth : 8 bits Scan type : Progressive Bits/(Pixel*Frame) : 0.157 Stream size : 599 MiB (91%) Writing library : x264 core 120 Encoded date : UTC 2012-07-23 16:02:11 Tagged date : UTC 2012-07-23 17:06:18 Color primaries : BT.601-6 525, BT.1358 525, BT.1700 NTSC, SMPTE 170M Transfer characteristics : BT.709-5, BT.1361 Matrix coefficients : BT.601-6 525, BT.1358 525, BT.1700 NTSC, SMPTE 170M Audio ID : 2 Format : AAC Format/Info : Advanced Audio Codec Format profile : LC Codec ID : 40 Duration : 51mn 19s Bit rate mode : Variable Bit rate : 160 Kbps Maximum bit rate : 198 Kbps Channel(s) : 2 channels Channel positions : Front: L R Sampling rate : 48.0 KHz Compression mode : Lossy Delay relative to video : -67ms Stream size : 58.7 MiB (9%) Encoded date : UTC 2012-07-23 16:02:11 Tagged date : UTC 2012-07-23 17:06:17

Descarga http://down.descargardvdrip.org/decode.php?h=aHR0cDovL2FkZi5seS9GM2pWYg==

Contraseña: clarodeluna

Si buscas el CD visita mi otro post


Abel pintos – sueños dorados CD (2012)


http://down.descargardvdrip.org/decode.php?h=aHR0cDovL3d3dy5jbGFyb2RlbHVuYWxpYnJvcy5teC8= Abel Pintos – Sueños dorados ( dvd ) Descargar Gratis musica mp3 gratis, discografia completa, descarga directa, alta calidad, descargar todas las canciones, 1 link, torrent, rapidshare, mediafire, MEGA



descargar

  • Abel pintos descarga completa torrent
  • abel pintos dvd sueño dorado 1 link torrent
  • descargar abel pintos: tu voz a computadora
  • descargar el cd de abel pintos 2012 gratis
  • dorado@cvtelecom cv

Deja un comentario