[DVDRip] Bel Ami, historia de un seductor (2012) [BDrip m720p][Cast(Ac3)-Eng(Ac3)][Sub][Romance.Drama] Descargar Gratis

Bel Ami, historia de un seductor (2012) [BDrip m720p][Cast(Ac3)-Eng(Ac3)][Sub][Romance.Drama] Descargar Gratis descargar dvdrip, ver online, 1 link, full HD, HDRip, BRRip, español latino, castellano, rmvb, rapidshare, putlocker, torrent, mediafire





TÍTULO ORIGINAL Bel Ami
AÑO Ver trailer externo 2012
DURACIÓN Trailers/Vídeos 103 min.
PAÍS Sección visual
DIRECTOR Nick Ormerod, Declan Donnellan
GUIÓN Rachel Bennette (Novela: Guy de Maupassant)
MÚSICA Lakshman Joseph De Saram, Rachel Portman
FOTOGRAFÍA Stefano Falivene
REPARTO Robert Pattinson, Christina Ricci, Uma Thurman, Kristin Scott Thomas, Colm Meaney
PRODUCTORA Coproducción Reino Unido-Francia-Italia; 19 Entertainment / Rai Cinema / Redwave Films
GÉNERO Romance. Drama | Drama de época. Periodismo

SINOPSIS

Adaptación de la novela homónima de Guy de Maupassant (1885). Relato que narra el ascenso social de Georges Duroy, un joven que carece del talento y de la voluntad necesaria para ejercer la profesión de periodista. Cuando llega a París procedente de Argelia, donde ha pasado dos años en el ejército, su gran atractivo físico y su encanto personal le abren todas las puertas. A medida que descubre sus posibilidades de subir en la escala social se produce en él una progresiva degradación moral

Formato: Matroska
Tamaño: 2.96 Gb
Resolucion: 1280×544
Audio 1: AC3 384 kbpsCastellano
Audio 2: AC3 384 kbps Ingles
Subs: Español e Inglés
Gracias Sant1

MEDIAINFO


Código:
Format                                   : Matroska
Format version : Version 2
File size : 2.96 GiB
Duration : 1h 42mn
Overall bit rate : 4 137 Kbps
Encoded date : UTC 2013-02-07 02:40:28
Writing application : mkvmerge v4.8.0 (‘I Got The…’) creado el May 24 2011 03:12:58
Writing library : libebml v1.2.0 + libmatroska v1.1.0
Video
ID : 1
Format : AVC
Format/Info : Advanced Video Codec
Format profile : High@L4.1
Format settings, CABAC : Yes
Format settings, ReFrames : 4 frames
Codec ID : V_MPEG4/ISO/AVC
Duration : 1h 42mn
Bit rate : 3 400 Kbps
Width : 1 280 pixels
Height : 544 pixels
Display aspect ratio : 2.35:1
Original display aspect ratio : 2.35:1
Frame rate : 23.976 fps
Color space : YUV
Chroma subsampling : 4:2:0
Bit depth : 8 bits
Scan type : Progressive
Bits/(Pixel*Frame) : 0.204
Stream size : 2.35 GiB (79%)
Writing library : x264 core 120 r2120 0c7dab9
Encoding settings : cabac=1 / ref=5 / deblock=1:0:0 / analyse=0×3:0×133 / me=hex / subme=5 / psy=1 / psy_rd=1.00:0.00 / mixed_ref=1 / me_range=16 / chroma_me=1 / trellis=1 / 8x8dct=1 / cqm=0 / deadzone=21,11 / fast_pskip=1 / chroma_qp_offset=0 / threads=6 / sliced_threads=0 / nr=0 / decimate=1 / interlaced=0 / bluray_compat=0 / constrained_intra=0 / bframes=8 / b_pyramid=1 / b_adapt=1 / b_bias=0 / direct=3 / weightb=1 / open_gop=0 / weightp=2 / keyint=250 / keyint_min=25 / scenecut=40 / intra_refresh=0 / rc_lookahead=40 / rc=abr / mbtree=1 / bitrate=3400 / ratetol=1.0 / qcomp=0.60 / qpmin=0 / qpmax=69 / qpstep=4 / ip_ratio=1.40 / aq=1:1.00
Language : Spanish
Default : Yes
Forced : No
Audio #1
ID : 2
Format : AC-3
Format/Info : Audio Coding 3
Mode extension : CM (complete main)
Codec ID : A_AC3
Duration : 1h 42mn
Bit rate mode : Constant
Bit rate : 384 Kbps
Channel(s) : 6 channels
Channel positions : Front: L C R, Side: L R, LFE
Sampling rate : 48.0 KHz
Bit depth : 16 bits
Compression mode : Lossy
Delay relative to video : 400ms
Stream size : 281 MiB (9%)
Language : Spanish
Default : Yes
Forced : No
Audio #2
ID : 3
Format : AC-3
Format/Info : Audio Coding 3
Mode extension : CM (complete main)
Codec ID : A_AC3
Duration : 1h 42mn
Bit rate mode : Constant
Bit rate : 384 Kbps
Channel(s) : 6 channels
Channel positions : Front: L C R, Side: L R, LFE
Sampling rate : 48.0 KHz
Bit depth : 16 bits
Compression mode : Lossy
Stream size : 281 MiB (9%)
Language : English
Default : No
Forced : No
Text #1
ID : 4
Format : UTF-8
Codec ID : S_TEXT/UTF8
Codec ID/Info : UTF-8 Plain Text
Language : Spanish
Default : No
Forced : No
Text #2
ID : 5
Format : VobSub
Muxing mode : zlib
Codec ID : S_VOBSUB
Codec ID/Info : The same subtitle format used on DVDs
Language : English
Default : No
Forced : No







Uploaded


Código:
http://***********/3ed0jaum




Uploaded


Código:
http://***********/nkk3pvff

http://***********/ubx7s5fo

http://***********/dhpiqgwp

http://***********/mhznviwz


Freakshare


Código:
http://***********.com/files/hv346u0h/belami.m720p.yamil.part1.rar.html

http://***********.com/files/1avwmhn1/belami.m720p.yamil.part2.rar.html

http://***********.com/files/slbs0ar8/belami.m720p.yamil.part3.rar.html

http://***********.com/files/4wuuahkq/belami.m720p.yamil.part4.rar.html


Rapidgator


Código:
http://***********.net/file/76900409/belami.m720p.yamil.part1.rar.html

http://***********.net/file/76900115/belami.m720p.yamil.part2.rar.html

http://***********.net/file/76900467/belami.m720p.yamil.part3.rar.html

http://***********.net/file/76900466/belami.m720p.yamil.part4.rar.html


Bitshare


Código:
http://***********.com/files/70qpuxfm/belami.m720p.yamil.part1.rar.html

http://***********.com/files/ysc4hll2/belami.m720p.yamil.part2.rar.html

http://***********.com/files/ypi96rqa/belami.m720p.yamil.part3.rar.html

http://***********.com/files/zbneoh01/belami.m720p.yamil.part4.rar.html


Turbobit


Código:
http://***********.net/vgf74fra7hpf.html

http://***********.net/64j2wrfp2boa.html

http://***********.net/m4fq6vsnffpi.html

http://***********.net/or96heqqnek8.html




Bel Ami, historia de un seductor (2012) [BDrip m720p][Cast(Ac3)-Eng(Ac3)][Sub][Romance.Drama] Descargar Gratis descargar dvdrip, ver online, 1 link, full HD, HDRip, BRRip, español latino, castellano, rmvb, rapidshare, putlocker, torrent, mediafire



descargar

  • matthaus amx@fickschlitten com loc:ES
  • csa rai@cvtelecom cv loc:ES
  • hinz hfeogttl@an-neuss de loc:ES
  • hinz usautg@fickschlitten com loc:ES
  • thomas teshlbi@fickschlitten com loc:ES
  • helmut rtgee@about-warren com loc:ES

Deja un comentario